<?xml version="1.0" standalone="no"?>
<!DOCTYPE svg PUBLIC "-//W3C//DTD SVG 1.1//EN" "http://www.w3.org/Graphics/SVG/1.1/DTD/svg11.dtd" >
<svg xmlns="http://www.w3.org/2000/svg">
<metadata>
<json>
<![CDATA[
{
	"fontFamily": "uicore-icons",
	"majorVersion": 1,
	"minorVersion": 0,
	"fontURL": "https://agencify.com/",
	"designerURL": "https://xpeedstudio.com/",
	"description": "Font generated by IcoMoon.",
	"version": "Version 1.0",
	"fontId": "uicore-icons",
	"psName": "uicore-icons",
	"subFamily": "Regular",
	"fullName": "uicore-icons"
}
]]>
</json>
</metadata>
<defs>
<font id="uicore-icons" horiz-adv-x="1024">
<font-face units-per-em="1024" ascent="870.4" descent="-153.6" />
<missing-glyph horiz-adv-x="1024" />
<glyph unicode="&#x20;" horiz-adv-x="0" d="" />
<glyph unicode="&#xe900;" glyph-name="announce" data-tags="announce" d="M834.56 752.64l30.72-109.227c40.96-22.187 66.56-66.56 66.56-117.76 0-22.187-5.12-42.667-15.36-61.44l30.72-109.227c46.080 42.667 76.8 102.4 76.8 170.667 1.707 110.933-80.213 206.507-189.44 226.987zM744.107 865.28c-6.827 25.6-32.427 37.547-58.027 30.72s-39.253-34.133-30.72-59.733l6.827-30.72-561.493-303.787c-58.027-30.72-98.987-92.16-98.987-163.84 0-102.4 83.627-186.027 186.027-186.027l76.8 6.827v-17.067c0-56.32 52.907-114.347 63.147-124.587l143.36-143.36 92.16 92.16-143.36 143.36c-11.947 11.947-25.6 30.72-25.6 32.427v27.307l440.32 44.373 6.827-30.72c5.12-20.48 25.6-32.427 42.667-32.427 5.12 0 6.827 0 11.947 1.707 25.6 6.827 37.547 32.427 30.72 58.027l-182.613 655.36zM675.84 616.107l-465.92-249.173c-6.827-1.707-15.36-5.12-22.187-5.12-15.36 0-32.427 6.827-40.96 25.6-11.947 22.187-1.707 51.2 17.067 63.147l464.213 250.88c22.187 11.947 51.2 1.707 63.147-17.067 15.36-27.307 6.827-54.613-15.36-68.267z" />
<glyph unicode="&#xe901;" glyph-name="arrow" data-tags="arrow" d="M540.486 203.966l300.818 299.678c17.092 17.092 17.092 44.438 0 60.39s-44.438 17.092-60.39 0l-268.912-268.912-268.912 268.912c-17.092 17.092-44.438 17.092-60.39 0s-17.092-43.299 0-60.39l299.678-299.678c15.952-17.092 43.299-17.092 58.112 0z" />
<glyph unicode="&#xe902;" glyph-name="bolt" data-tags="bolt" horiz-adv-x="840" d="M617.813 897.707l-617.813-558.080h395.947l-211.627-465.92 655.36 651.947h-366.933z" />
<glyph unicode="&#xe903;" glyph-name="box" data-tags="box" d="M1066.667 808.96h-960.853l-105.813-209.92h1167.36zM105.813 489.813v-532.48h960.853v532.48h-960.853zM317.44 116.053h-109.227v56.32h109.227v-56.32zM426.667 220.16h-215.040v56.32h215.040c0 0 0-56.32 0-56.32zM588.8 220.16h-85.333v56.32h85.333v-56.32zM641.707 329.387h-430.080v54.613h430.080v-54.613zM960.853 66.56h-107.52v109.227h107.52v-109.227z" />
<glyph unicode="&#xe904;" glyph-name="card" data-tags="card" horiz-adv-x="1056" d="M1066.667 810.667h-960.853c-58.027 0-105.813-47.787-105.813-105.813h1172.48c0 54.613-47.787 105.813-105.813 105.813zM0 488.107v-424.96c0-58.027 47.787-105.813 105.813-105.813h959.147c58.027 0 105.813 47.787 105.813 105.813v424.96h-1170.773zM319.147 63.147h-211.627v105.813h209.92v-105.813zM638.293 63.147h-209.92v105.813h209.92v-105.813zM640 278.187h-529.067v105.813h532.48v-105.813h-3.413zM1061.547 63.147h-105.813v105.813h105.813v-105.813z" />
<glyph unicode="&#xe905;" glyph-name="cart" data-tags="cart" horiz-adv-x="884" d="M882.347-76.8l-73.387 679.253c-1.707 25.6-22.187 42.667-47.787 42.667v0h-146.773v95.573c0 85.333-76.8 155.307-172.373 155.307s-174.080-71.68-174.080-155.307v-95.573h-146.773c-25.6 0-44.373-17.067-47.787-42.667l-73.387-679.253c-1.707-11.947 1.707-25.6 10.24-35.84s20.48-17.067 32.427-17.067c1.707 0 1.707 0 5.12 0h786.773c11.947 0 25.6 5.12 35.84 15.36s15.36 20.48 15.36 35.84c-1.707 0-3.413 1.707-3.413 1.707zM518.827 646.827h-151.893v95.573c0 32.427 35.84 59.733 76.8 59.733s76.8-27.307 76.8-59.733v-95.573h-1.707zM100.693-30.72l63.147 583.68h105.813v-59.733c0-27.307 22.187-47.787 47.787-47.787s47.787 22.187 47.787 47.787v59.733h151.893v-59.733c0-27.307 22.187-47.787 47.787-47.787s47.787 22.187 47.787 47.787v59.733h104.107l63.147-583.68h-679.253z" />
<glyph unicode="&#xe906;" glyph-name="chat" data-tags="chat" d="M373.76 291.84h278.187c102.4 0 186.027 83.627 186.027 186.027v186.027c0 102.4-83.627 186.027-186.027 186.027h-464.213c-102.4 1.707-187.733-83.627-187.733-186.027v-186.027c0-102.4 85.333-186.027 187.733-186.027v-186.027l186.027 186.027zM930.133 636.587v-160.427c0-153.6-124.587-278.187-278.187-278.187h-256l-81.92-81.92c17.067-5.12 37.547-10.24 58.027-10.24h278.187l186.027-186.027v186.027c102.4 0 186.027 83.627 186.027 186.027v186.027c0 66.56-37.547 128-92.16 158.72z" />
<glyph unicode="&#xe907;" glyph-name="close" data-tags="close" d="M610.987 384l390.827 390.827c27.307 27.307 27.307 71.68 0 98.987s-71.68 27.307-98.987 0l-390.827-390.827-390.827 390.827c-27.307 27.307-71.68 27.307-98.987 0s-27.307-71.68 0-98.987l390.827-390.827-390.827-390.827c-27.307-27.307-27.307-71.68 0-98.987s71.68-27.307 98.987 0l390.827 390.827 390.827-390.827c27.307-27.307 71.68-27.307 98.987 0s27.307 71.68 0 98.987l-390.827 390.827z" />
<glyph unicode="&#xe908;" glyph-name="cup" data-tags="cup" d="M610.987 155.307c411.307 187.733 409.6 501.76 409.6 556.373 0 47.787-40.96 92.16-95.573 92.16-13.653 0-52.907 0-93.867 0 3.413 56.32 3.413 92.16 3.413 92.16h-648.533c0 0 0-35.84 3.413-92.16-37.547 0-80.213 0-92.16 0-54.613 0-93.867-40.96-93.867-92.16 0-54.613 0-368.64 409.6-556.373 1.707-1.707 5.12-5.12 6.827-8.533v-184.32h-46.080c-51.2 0-92.16-40.96-92.16-92.16h462.507c0 51.2-40.96 92.16-92.16 92.16h-46.080v182.613c0 6.827 3.413 8.533 5.12 10.24zM928.427 709.973v0c0-88.747-27.307-240.64-186.027-368.64 51.2 119.467 76.8 259.413 87.040 368.64h98.987zM93.867 709.973h100.693c10.24-107.52 35.84-245.76 87.040-366.933-158.72 128-187.733 276.48-187.733 366.933z" />
<glyph unicode="&#xe909;" glyph-name="download" data-tags="download" d="M512 194.56l322.56 370.347h-184.32v281.6h-278.187v-281.6h-182.613zM744.107 286.72l-93.867-92.16h187.733v-189.44h-653.653v189.44h187.733l-95.573 92.16h-276.48v-373.76h1024v373.76z" />
<glyph unicode="&#xe90a;" glyph-name="facebook" data-tags="facebook" d="M904.533 896h-783.36c-66.56 0-121.173-54.613-121.173-119.467v-781.653c0-66.56 54.613-119.467 119.467-119.467h426.667v392.533h-131.413v157.013h131.413v122.88c0 116.053 92.16 208.213 208.213 208.213h112.64v-167.253h-112.64c-23.893 0-44.373-20.48-44.373-44.373v-122.88h155.307l-25.6-155.307h-129.707v-394.24h191.147c66.56 0 121.173 52.907 121.173 121.173v783.36c1.707 64.853-51.2 119.467-117.76 119.467z" />
<glyph unicode="&#xe90b;" glyph-name="globe" data-tags="globe" d="M512 896c-281.6 0-512-230.4-512-512s230.4-512 512-512 512 230.4 512 512-230.4 512-512 512zM512 629.76c-29.013 0-29.013-40.96-29.013-110.933s-194.56-95.573-194.56-128 44.373-58.027 104.107-58.027 157.013-95.573 157.013-184.32-97.28-112.64-128-155.307c-5.12-5.12-6.827-8.533-13.653-13.653-35.84-37.547-51.2-18.773-51.2 15.36v3.413c0 42.667 0 104.107 0 184.32 0 78.507-35.84 129.707-76.8 145.067-107.52 40.96-162.133 80.213-182.613 136.533 22.187 98.987 76.8 182.613 153.6 244.053 51.2 32.427 97.28 46.080 97.28 18.773 0-29.013-64.853-69.973-64.853-102.4s6.827-58.027 35.84-58.027c29.013 0 40.96 20.48 40.96 52.907s-5.12 61.44 32.427 61.44c35.84 0 6.827-58.027 40.96-58.027 56.32 0 97.28 112.64 40.96 112.64-47.787 0-80.213 42.667-25.6 56.32 13.653 1.707 29.013 1.707 44.373 5.12 100.693 0 121.173-35.84 121.173-88.747-1.707-49.493-73.387-78.507-102.4-78.507zM834.56 163.84c-49.493 0-15.36 179.2-92.16 179.2s-61.44 116.053-61.44 138.24c0 23.893 13.653 35.84 40.96 35.84s23.893 83.627 23.893 116.053c0 54.613 37.547 92.16 64.853 58.027 23.893-32.427 61.44-97.28 61.44-172.373 0-64.853 46.080-87.040 61.44-134.827 0-52.907-10.24-107.52-30.72-153.6-22.187-37.547-46.080-66.56-68.267-66.56z" />
<glyph unicode="&#xe90c;" glyph-name="heart" data-tags="heart" horiz-adv-x="1123" d="M1083.733 433.493c5.12 13.653 13.653 25.6 17.067 39.253 11.947 30.72 20.48 59.733 20.48 83.627 0 3.413 0 5.12 0 5.12 0 5.12 3.413 11.947 3.413 17.067 0 174.080-134.827 314.027-300.373 314.027-112.64 0-208.213-64.853-261.12-160.427-52.907 95.573-148.48 160.427-261.12 160.427-167.253 1.707-302.080-139.947-302.080-314.027 0-8.533 3.413-17.067 3.413-22.187v0c0-30.72 8.533-64.853 22.187-98.987v-3.413c105.813-252.587 535.893-587.093 535.893-587.093s370.347 288.427 508.587 530.773c5.12 8.533 8.533 17.067 13.653 25.6-3.413 6.827-3.413 10.24 0 10.24z" />
<glyph unicode="&#xe90d;" glyph-name="info" data-tags="info" d="M512 896c-281.6 0-512-230.4-512-512s230.4-512 512-512 512 230.4 512 512-230.4 512-512 512zM465.92 619.52h92.16v-279.893h-92.16v279.893zM558.080 153.6h-92.16v92.16h92.16v-92.16z" />
<glyph unicode="&#xe90e;" glyph-name="instagram" data-tags="instagram" d="M512 803.84c134.827 0 153.6 0 206.507-3.413 49.493-3.413 76.8-10.24 93.867-17.067 23.893-10.24 40.96-20.48 59.733-37.547s27.307-35.84 37.547-59.733c8.533-18.773 15.36-46.080 17.067-95.573 3.413-54.613 3.413-69.973 3.413-208.213s0-153.6-3.413-206.507c-1.707-49.493-10.24-76.8-17.067-95.573-10.24-23.893-20.48-40.96-37.547-58.027-17.067-18.773-35.84-29.013-59.733-37.547-17.067-8.533-46.080-15.36-93.867-18.773-52.907-1.707-68.267-1.707-208.213-1.707s-153.6 0-206.507 1.707c-47.787 1.707-76.8 10.24-95.573 18.773-22.187 10.24-40.96 20.48-59.733 37.547-17.067 17.067-29.013 35.84-37.547 58.027-8.533 18.773-15.36 46.080-17.067 95.573-1.707 54.613-1.707 69.973-1.707 208.213s0 153.6 3.413 208.213c3.413 47.787 10.24 76.8 17.067 95.573 10.24 20.48 20.48 39.253 37.547 56.32s35.84 29.013 59.733 37.547c18.773 8.533 46.080 15.36 95.573 17.067 52.907 5.12 71.68 5.12 206.507 5.12zM512 896c-138.24 0-157.013 0-209.92-3.413s-92.16-10.24-124.587-22.187-61.44-30.72-90.453-59.733-46.080-56.32-59.733-88.747-20.48-69.973-22.187-126.293c-5.12-54.613-5.12-73.387-5.12-211.627s0-155.307 3.413-209.92c3.413-52.907 10.24-92.16 22.187-124.587 13.653-34.133 30.72-61.44 59.733-88.747 29.013-29.013 56.32-46.080 88.747-59.733s69.973-20.48 126.293-23.893c54.613-5.12 73.387-5.12 211.627-5.12s155.307 0 209.92 1.707c52.907 1.707 92.16 10.24 124.587 23.893 34.133 13.653 61.44 30.72 88.747 58.027 29.013 29.013 46.080 56.32 59.733 88.747 13.653 34.133 20.48 69.973 23.893 126.293 5.12 58.027 5.12 75.093 5.12 213.333s0 157.013-1.707 209.92-10.24 92.16-23.893 124.587-30.72 61.44-58.027 88.747c-29.013 29.013-56.32 46.080-88.747 59.733-34.133 13.653-69.973 20.48-126.293 22.187-58.027 6.827-75.093 6.827-213.333 6.827v0zM512 646.827c-146.773 0-262.827-117.76-262.827-262.827s117.76-262.827 262.827-262.827 262.827 116.053 262.827 262.827-116.053 262.827-262.827 262.827zM512 211.627c-95.573 0-172.373 76.8-172.373 172.373s76.8 172.373 172.373 172.373 172.373-76.8 172.373-172.373-76.8-172.373-172.373-172.373zM848.213 658.773c0-33.932-27.508-61.44-61.44-61.44s-61.44 27.508-61.44 61.44c0 33.932 27.508 61.44 61.44 61.44s61.44-27.508 61.44-61.44z" />
<glyph unicode="&#xe90f;" glyph-name="linkedin" data-tags="linkedin" d="M921.6 896h-819.2c-56.32 0-102.4-46.080-102.4-102.4v-819.2c0-56.32 46.080-102.4 102.4-102.4h819.2c56.32 0 102.4 46.080 102.4 102.4v819.2c0 56.32-46.080 102.4-102.4 102.4zM307.2 25.6h-153.6v460.8h153.6v-460.8zM230.4 573.44c-51.2 0-92.16 40.96-92.16 92.16s40.96 92.16 92.16 92.16 92.16-40.96 92.16-92.16-40.96-92.16-92.16-92.16zM870.4 25.6h-153.6v271.36c0 40.96-35.84 76.8-76.8 76.8s-76.8-35.84-76.8-76.8v-271.36h-153.6v460.8h153.6v-61.44c25.6 40.96 81.92 71.68 128 71.68 97.28 0 179.2-81.92 179.2-179.2v-291.84z" />
<glyph unicode="&#xe910;" glyph-name="mail" data-tags="mail" d="M1143.467-1.707c15.36 17.067 27.307 40.96 27.307 66.56v640c0 23.893-8.533 42.667-23.893 63.147l-327.68-389.12 324.267-380.587zM588.8 319.147l546.133 465.92c-17.067 15.36-40.96 25.6-68.267 25.6h-960.853c-25.6 1.707-47.787-8.533-66.56-25.6l549.547-465.92zM25.6 771.413c-13.653-18.773-25.6-40.96-25.6-66.56v-638.293c0-27.307 11.947-52.907 29.013-69.973l327.68 385.707-331.093 389.12zM749.227 298.667l-110.933-128c-23.893-29.013-66.56-30.72-95.573-8.533-3.413 1.707-5.12 5.12-8.533 8.533l-110.933 128-378.88-322.56c17.067-11.947 39.253-18.773 63.147-18.773h959.147c23.893 0 42.667 8.533 59.733 18.773l-377.173 322.56z" />
<glyph unicode="&#xe911;" glyph-name="map-pin" data-tags="map-pin" horiz-adv-x="742" d="M742.4 523.947c0 204.8-165.547 372.053-370.347 372.053s-372.053-167.253-372.053-372.053c0-3.413 0-6.827 0-10.24v0c0-8.533 0-18.773 3.413-25.6 0-3.413 0-3.413 0-5.12 0-6.827 3.413-15.36 3.413-22.187 0-5.12 3.413-10.24 3.413-18.773 56.32-252.587 361.813-570.027 361.813-570.027s274.773 281.6 351.573 532.48c5.12 18.773 10.24 35.84 15.36 56.32 3.413 18.773 5.12 35.84 5.12 54.613v1.707c-1.707 1.707-1.707 5.12-1.707 6.827zM373.76 339.627c-102.4 0-184.32 81.92-184.32 184.32s81.92 184.32 184.32 184.32 184.32-81.92 184.32-184.32c0-102.4-81.92-184.32-184.32-184.32z" />
<glyph unicode="&#xe912;" glyph-name="messenger" data-tags="messenger" d="M512 896c-279.893 0-510.293-211.627-510.293-474.453 0-150.187 73.387-283.307 191.147-368.64v-180.907l172.373 97.28c46.080-11.947 93.867-20.48 145.067-20.48 279.893 0 510.293 211.627 510.293 474.453s-228.693 472.747-508.587 472.747zM563.2 256l-129.707 139.947-252.587-139.947 278.187 298.667 133.12-139.947 249.173 139.947-278.187-298.667z" />
<glyph unicode="&#xe913;" glyph-name="phone" data-tags="phone" d="M226.987 894.293c0 0-83.627 0-93.867 0-8.533 0-133.12-85.333-133.12-199.68 0-42.667 0-61.44 0-92.16s97.28-293.547 288.427-474.453 361.813-254.293 517.12-254.293c143.36 0 218.453 133.12 218.453 145.067s0 93.867 0 107.52c0 11.947-10.24 20.48-25.6 32.427-15.36 10.24-182.613 102.4-182.613 102.4s-37.547 6.827-56.32-15.36c-15.36-20.48-102.4-112.64-102.4-112.64s-68.267-40.96-232.107 124.587-167.253 228.693-150.187 245.76c17.067 17.067 76.8 71.68 76.8 98.987s0 22.187 0 35.84c0 11.947-97.28 237.227-97.28 237.227s-20.48 18.773-27.307 18.773z" />
<glyph unicode="&#xe914;" glyph-name="pinterest" data-tags="pinterest" d="M512 896c-281.6 0-512-230.4-512-512 0-209.92 124.587-389.12 307.2-467.627-3.413 35.84 0 78.507 6.827 117.76 10.24 40.96 66.56 278.187 66.56 278.187s-15.36 32.427-15.36 81.92c0 76.8 44.373 133.12 100.693 133.12 46.080 0 68.267-35.84 68.267-76.8 0-46.080-30.72-117.76-46.080-180.907-13.653-52.907 27.307-100.693 81.92-100.693 97.28 0 162.133 126.293 162.133 271.36 0 112.64-76.8 196.267-211.627 196.267-155.307 0-250.88-116.053-250.88-245.76 0-44.373 13.653-76.8 32.427-98.987 10.24-10.24 10.24-15.36 6.827-29.013-3.413-10.24-6.827-32.427-10.24-40.96-3.413-13.653-13.653-18.773-25.6-13.653-71.68 27.307-105.813 107.52-105.813 194.56 0 145.067 122.88 320.853 365.227 320.853 194.56 0 325.973-141.653 325.973-293.547 0-199.68-112.64-349.867-276.48-349.867-56.32 0-107.52 30.72-124.587 64.853 0 0-30.72-117.76-35.84-139.947-10.24-37.547-32.427-78.507-51.2-109.227 42.667-17.067 90.453-23.893 141.653-23.893 281.6 0 512 230.4 512 512s-230.4 512-512 512z" />
<glyph unicode="&#xe915;" glyph-name="play" data-tags="play" d="M512 896c-281.6 0-512-230.4-512-512s230.4-512 512-512 512 230.4 512 512-230.4 512-512 512zM372.053 151.893v465.92l372.053-233.813-372.053-232.107z" />
<glyph unicode="&#xe916;" glyph-name="reddit" data-tags="reddit" d="M512 896c281.6 0 512-230.4 512-512s-230.4-512-512-512-512 230.4-512 512 230.4 512 512 512zM851.627 384c0 40.96-32.427 73.387-73.387 73.387-20.48 0-37.547-6.827-51.2-20.48-51.2 35.84-121.173 61.44-199.68 64.853l34.133 158.72 109.227-22.187c0-29.013 25.6-51.2 52.907-51.2s52.907 23.893 52.907 54.613c0 29.013-23.893 54.613-52.907 54.613-20.48 0-37.547-13.653-46.080-30.72l-122.88 25.6c-3.413 0-6.827 0-10.24-3.413s-5.12-5.12-5.12-6.827l-37.547-179.2c-78.507-3.413-150.187-25.6-201.387-64.853-13.653 13.653-30.72 20.48-51.2 20.48-40.96 0-73.387-32.427-73.387-75.093 0-30.72 18.773-56.32 44.373-68.267 0-8.533-3.413-15.36-3.413-23.893 0-116.053 133.12-208.213 300.373-208.213s298.667 92.16 298.667 206.507c0 8.533 0 15.36-1.707 23.893 20.48 15.36 37.547 40.96 37.547 71.68v0zM640 189.44c-35.84-35.84-105.813-37.547-124.587-37.547-20.48 0-88.747 1.707-126.293 37.547-5.12 5.12-5.12 15.36 0 20.48s15.36 5.12 20.48 0c22.187-23.893 71.68-30.72 107.52-30.72s83.627 6.827 107.52 30.72c5.12 5.12 15.36 5.12 20.48 0 0-5.12 0-15.36-5.12-20.48v0zM339.627 331.093c0 29.013 23.893 54.613 52.907 54.613s54.613-23.893 54.613-54.613c0-27.307-22.187-52.907-54.613-52.907-27.307-1.707-52.907 23.893-52.907 52.907zM629.76 276.48c-27.307 0-52.907 23.893-52.907 54.613s23.893 52.907 52.907 52.907c27.307 0 52.907-22.187 52.907-52.907 1.707-29.013-23.893-54.613-52.907-54.613z" />
<glyph unicode="&#xe917;" glyph-name="rocket" data-tags="rocket" horiz-adv-x="746" d="M372.053-1.707c-61.44 17.067-138.24 40.96-138.24 63.147 0-68.267 76.8-138.24 138.24-191.147 61.44 52.907 139.947 122.88 139.947 191.147 1.707-18.773-78.507-44.373-139.947-63.147zM372.053 59.733c42.667 0 81.92 15.36 114.347 40.96 191.147-10.24 259.413-40.96 259.413-40.96 0 68.267-76.8 128-189.44 160.427 0 6.827 1.707 15.36 1.707 25.6v279.893c0 32.427-10.24 66.56-25.6 92.16v0l-160.427 278.187-160.427-278.187c-15.36-27.307-25.6-58.027-25.6-92.16v-278.187c0-6.827 1.707-17.067 1.707-25.6-110.933-34.133-186.027-92.16-187.733-162.133 0 0 68.267 30.72 257.707 40.96 34.133-25.6 71.68-40.96 114.347-40.96zM372.053 616.107c51.2 0 92.16-40.96 92.16-92.16s-40.96-92.16-92.16-92.16-92.16 40.96-92.16 92.16c1.707 51.2 42.667 92.16 92.16 92.16z" />
<glyph unicode="&#xe918;" glyph-name="search" data-tags="search" horiz-adv-x="986" d="M967.68-20.48l-256 256c59.733 69.973 92.16 162.133 92.16 259.413 0 221.867-179.2 401.067-402.773 401.067s-401.067-179.2-401.067-401.067 179.2-401.067 401.067-401.067c78.507 0 151.893 23.893 211.627 61.44l264.533-264.533c13.653-13.653 30.72-18.773 44.373-18.773s30.72 5.12 42.667 18.773c29.013 25.6 29.013 66.56 3.413 88.747zM407.893 220.16c-153.6 0-273.067 122.88-273.067 274.773s119.467 273.067 273.067 273.067 273.067-122.88 273.067-273.067-124.587-274.773-273.067-274.773z" />
<glyph unicode="&#xe919;" glyph-name="shield" data-tags="shield" horiz-adv-x="922" d="M460.8 896c-204.8-80.213-460.8-105.813-460.8-105.813 0-349.867 8.533-740.693 460.8-918.187 453.973 177.493 460.8 568.32 460.8 919.893 0-1.707-250.88 30.72-460.8 104.107zM409.6 177.493l-102.4 102.4-76.8 78.507 98.987 102.4 80.213-80.213 204.8 204.8 102.4-98.987-307.2-308.907z" />
<glyph unicode="&#xe91a;" glyph-name="snapchat" data-tags="snapchat" d="M1024 657.067c0 18.773-1.707 35.84-5.12 54.613-5.12 22.187-10.24 42.667-20.48 63.147s-25.6 40.96-44.373 56.32c-25.6 25.6-58.027 42.667-92.16 52.907-34.133 8.533-64.853 10.24-97.28 10.24v0h-503.467c-18.773 0-37.547 0-56.32-3.413-20.48-1.707-40.96-6.827-61.44-11.947-30.72-10.24-58.027-29.013-78.507-54.613-27.307-25.6-44.373-58.027-54.613-92.16-8.533-32.427-10.24-63.147-10.24-95.573v-505.173c0-23.893 0-46.080 5.12-68.267s10.24-46.080 20.48-69.973c15.36-27.307 35.84-52.907 61.44-75.093 17.067-15.36 37.547-25.6 61.44-32.427 32.427-10.24 66.56-15.36 102.4-15.36 20.48 0 44.373 0 64.853 0 155.307 0 312.32 0 467.627 0 20.48 0 40.96 1.707 61.44 6.827 37.547 8.533 75.093 23.893 102.4 51.2 32.427 30.72 56.32 69.973 69.973 112.64 6.827 30.72 6.827 59.733 6.827 88.747v5.12c0 6.827 0 515.413 0 522.24zM885.76 182.613c-8.533-15.36-37.547-27.307-93.867-35.84-5.12 0-8.533-10.24-10.24-23.893 0-5.12-1.707-10.24-5.12-17.067 0-5.12-5.12-8.533-10.24-8.533v0c-5.12 0-10.24 0-15.36 1.707-15.36 3.413-30.72 3.413-42.667 3.413-10.24 0-20.48 0-30.72-1.707-20.48-1.707-37.547-15.36-56.32-27.307-25.6-17.067-56.32-40.96-98.987-40.96-3.413 0-5.12 0-5.12 0h-5.12c-44.373 0-75.093 20.48-100.693 40.96-17.067 13.653-35.84 25.6-56.32 27.307-17.067 1.707-27.307 1.707-37.547 1.707-15.36 0-27.307-1.707-40.96-5.12-5.12 0-10.24-1.707-15.36-1.707s-10.24 0-13.653 6.827c-3.413 5.12-3.413 13.653-5.12 18.773-3.413 13.653-5.12 23.893-10.24 23.893-56.32 6.827-88.747 20.48-93.867 35.84 0 1.707 0 1.707 0 5.12 0 5.12 1.707 8.533 6.827 10.24 44.373 8.533 83.627 30.72 117.76 69.973 15.36 17.067 30.72 40.96 40.96 61.44v0c8.533 13.653 8.533 25.6 3.413 32.427-6.827 18.773-30.72 25.6-46.080 30.72-5.12 0-6.827 1.707-10.24 1.707-13.653 5.12-35.84 18.773-32.427 32.427s18.773 20.48 30.72 20.48c3.413 0 5.12 0 10.24-1.707 15.36-6.827 27.307-10.24 37.547-10.24 13.653 0 20.48 5.12 23.893 6.827 0 6.827 0 15.36-3.413 23.893-3.413 51.2-6.827 116.053 10.24 150.187 49.493 110.933 151.893 117.76 182.613 117.76h15.36c30.72 0 133.12-6.827 180.907-117.76 15.36-35.84 13.653-98.987 10.24-150.187v-3.413c0-6.827 0-13.653 0-20.48 1.707-1.707 6.827-5.12 20.48-6.827 10.24 0 23.893 3.413 35.84 10.24 1.707 1.707 8.533 1.707 13.653 1.707s10.24 0 13.653-1.707v0c10.24-5.12 17.067-13.653 17.067-20.48s-5.12-20.48-32.427-30.72c-1.707 0-6.827-3.413-10.24-3.413-15.36-5.12-40.96-13.653-46.080-30.72-5.12-10.24-1.707-20.48 3.413-34.133v0c1.707-5.12 51.2-116.053 158.72-133.12 5.12 0 8.533-5.12 8.533-10.24-13.653 6.827-13.653 5.12-13.653 1.707v0z" />
<glyph unicode="&#xe91b;" glyph-name="target" data-tags="target" d="M512 896c-281.6 0-512-230.4-512-512s230.4-512 512-512 512 230.4 512 512-230.4 512-512 512zM556.373 6.827v238.933h-92.16v-238.933c-170.667 23.893-307.2 158.72-327.68 331.093h235.52v92.16h-235.52c20.48 172.373 155.307 307.2 327.68 329.387v-235.52h92.16v235.52c174.080-20.48 312.32-155.307 332.8-331.093h-237.227v-92.16h235.52c-18.773-172.373-157.013-310.613-331.093-329.387z" />
<glyph unicode="&#xe91c;" glyph-name="tiktok" data-tags="tiktok" d="M899.413 896h-776.533c-66.56 0-122.88-54.613-122.88-122.88v-778.24c0-68.267 54.613-122.88 122.88-122.88h778.24c66.56 0 122.88 52.907 122.88 122.88v778.24c-1.707 68.267-54.613 122.88-124.587 122.88zM802.133 448.853c-5.12 0-10.24 0-17.067 0-61.44 0-119.467 30.72-153.6 81.92v-281.6c0-114.347-92.16-206.507-206.507-206.507s-206.507 92.16-206.507 206.507 92.16 206.507 206.507 206.507v0c5.12 0 6.827 0 11.947 0v-102.4c-5.12 0-6.827 1.707-11.947 1.707-58.027 0-104.107-47.787-104.107-104.107 0-58.027 47.787-104.107 104.107-104.107 58.027 0 109.227 46.080 109.227 104.107v477.867h97.28c10.24-87.040 78.507-155.307 168.96-163.84l1.707-116.053z" />
<glyph unicode="&#xe91d;" glyph-name="time" data-tags="time" d="M512 896c-281.6 0-512-230.4-512-512s230.4-512 512-512 512 230.4 512 512-230.4 512-512 512zM512 1.707c-209.92 0-380.587 170.667-380.587 380.587s170.667 382.293 380.587 382.293 382.293-170.667 382.293-380.587-172.373-382.293-382.293-382.293zM558.080 709.973h-92.16v-372.053h278.187v93.867h-186.027z" />
<glyph unicode="&#xe91e;" glyph-name="truck" data-tags="truck" horiz-adv-x="1200" d="M390.827 49.493c0-49.493-44.373-92.16-92.16-92.16s-93.867 44.373-93.867 92.16c0 49.493 44.373 92.16 92.16 92.16 49.493 1.707 93.867-37.547 93.867-92.16zM1122.987 49.493c0-49.493-44.373-92.16-92.16-92.16-49.493 0-92.16 44.373-92.16 92.16 0 49.493 44.373 92.16 92.16 92.16 51.2 1.707 92.16-37.547 92.16-92.16zM1332.907 237.227v87.040h-66.56v244.053h66.56c0 66.56-52.907 119.467-119.467 119.467h-242.347v-482.987h119.467c66.56 0 119.467-52.907 119.467-119.467v-3.413h122.88v66.56h-66.56v92.16h66.56v-3.413zM849.92 810.667h-730.453c-66.56 0-119.467-52.907-119.467-119.467v-488.107c0-66.56 52.907-119.467 119.467-119.467v0c0 66.56 52.907 119.467 119.467 119.467h122.88c66.56 0 119.467-52.907 119.467-119.467v-3.413h363.52v730.453h5.12zM184.32 322.56c-34.133 0-61.44 27.307-61.44 61.44s27.307 61.44 61.44 61.44 61.44-27.307 61.44-61.44-29.013-61.44-61.44-61.44z" />
<glyph unicode="&#xe91f;" glyph-name="twitch" data-tags="twitch" horiz-adv-x="980" d="M68.267 896l-68.267-175.787v-720.213h245.76v-128h138.24l131.413 129.707h199.68l266.24 266.24v628.053h-913.067zM885.76 314.027l-153.6-153.6h-244.053l-129.707-129.707v129.707h-208.213v643.413h733.867v-489.813h1.707zM733.867 629.76v-266.24h-92.16v266.24h92.16zM488.107 629.76v-266.24h-92.16v266.24h92.16z" />
<glyph unicode="&#xe920;" glyph-name="twitter" data-tags="twitter" d="M1024 701.44c-40.96-18.773-80.213-29.013-121.173-34.133 46.080 29.013 76.8 66.56 92.16 116.053-40.96-25.6-87.040-40.96-133.12-51.2-40.96 44.373-92.16 66.56-153.6 66.56-59.733 0-107.52-20.48-148.48-61.44s-61.44-90.453-61.44-148.48c0-15.36 3.413-30.72 5.12-49.493-87.040 5.12-167.253 25.6-240.64 64.853s-138.24 90.453-192.853 157.013c-18.773-34.133-29.013-66.56-29.013-105.813 0-35.84 8.533-69.973 25.6-100.693 18.773-29.013 39.253-54.613 69.973-73.387-34.133 3.413-66.56 10.24-95.573 25.6v-3.413c0-51.2 15.36-95.573 49.493-133.12 30.72-39.253 71.68-61.44 121.173-71.68-18.773-5.12-35.84-8.533-56.32-8.533-13.653 0-25.6 0-39.253 3.413 13.653-40.96 39.253-76.8 75.093-102.4 35.84-29.013 76.8-40.96 122.88-40.96-76.8-59.733-163.84-90.453-261.12-90.453-18.773 0-35.84 0-51.2 3.413 97.28-64.853 204.8-95.573 322.56-95.573 75.093 0 143.36 13.653 209.92 35.84s121.173 56.32 167.253 95.573c46.080 39.253 87.040 85.333 121.173 136.533s59.733 105.813 75.093 162.133c15.36 56.32 25.6 112.64 25.6 168.96 0 13.653 0 20.48 0 29.013 37.547 27.307 73.387 63.147 100.693 105.813z" />
<glyph unicode="&#xe921;" glyph-name="vimeo" data-tags="vimeo" d="M819.2 896h-614.4c-112.64 0-204.8-92.16-204.8-204.8v-614.4c0-112.64 92.16-204.8 204.8-204.8h614.4c112.64 0 204.8 92.16 204.8 204.8v614.4c0 112.64-92.16 204.8-204.8 204.8zM250.88 370.347c-6.827 22.187-13.653 46.080-22.187 66.56 0 0 0 0 0 1.707 0 0 0 0 0-1.707-3.413 5.12-5.12 13.653-6.827 17.067-25.6 44.373-64.853 3.413-102.4 8.533-10.24 1.707-15.36 10.24-20.48 17.067-3.413 5.12-5.12 10.24-10.24 13.653v5.12c56.32 46.080 107.52 98.987 170.667 138.24 20.48 13.653 56.32 25.6 83.627 18.773 23.893-6.827 40.96-32.427 51.2-58.027v0c3.413-5.12 3.413-10.24 5.12-13.653 10.24-32.427 17.067-76.8 22.187-109.227 6.827-52.907 6.827-128 35.84-177.493v0c5.12-6.827 8.533-13.653 13.653-17.067 49.493-51.2 85.333 20.48 105.813 56.32 18.773 30.72 32.427 64.853 35.84 95.573 1.707 18.773 0 30.72-1.707 40.96-5.12 5.12-10.24 10.24-18.773 13.653 8.533-3.413 13.653-8.533 18.773-13.653-6.827 30.72-32.427 37.547-73.387 35.84-5.12 0-10.24 0-15.36 0 34.133 114.347 143.36 162.133 177.493 167.253 37.547 5.12 97.28 5.12 126.293-30.72 5.12-6.827 10.24-15.36 13.653-22.187 8.533-20.48 5.12-44.373 1.707-66.56-6.827-46.080-66.56-204.8-168.96-344.747-46.080-59.733-97.28-117.76-167.253-158.72-25.6-15.36-73.387-34.133-107.52-20.48-23.893 10.24-40.96 30.72-52.907 56.32v0c-25.6 46.080-37.547 110.933-51.2 158.72-18.773 44.373-30.72 85.333-42.667 122.88zM223.573 445.44v0 0zM225.28 442.027v0 0z" />
<glyph unicode="&#xe922;" glyph-name="warning" data-tags="warning" horiz-adv-x="1128" d="M1112.747-49.493l-512 923.307c-17.067 29.013-61.44 29.013-78.507 0l-515.413-931.84c-8.533-13.653-8.533-30.72 0-47.787 8.533-13.653 22.187-22.187 39.253-22.187h1034.24c0 0 0 0 3.413 0 25.6 0 44.373 20.48 44.373 47.787 0 10.24-6.827 22.187-15.36 30.72zM513.707 488.107h100.693v-307.2h-100.693v307.2zM614.4-23.893h-100.693v100.693h100.693v-100.693z" />
<glyph unicode="&#xe923;" glyph-name="wechat" data-tags="wechat" d="M573.44 348.16c-17.067 0-30.72-15.36-30.72-30.72s15.36-30.72 30.72-30.72c17.067 0 30.72 13.653 30.72 30.72 0 18.773-13.653 30.72-30.72 30.72zM269.653 585.387c-20.48 0-37.547-15.36-37.547-35.84s15.36-37.547 35.84-37.547 37.547 15.36 37.547 35.84c-1.707 20.48-17.067 37.547-35.84 37.547zM870.4 896h-716.8c-85.333 0-153.6-68.267-153.6-153.6v-716.8c0-83.627 68.267-153.6 153.6-153.6h716.8c83.627 0 153.6 69.973 153.6 153.6v716.8c0 85.333-69.973 153.6-153.6 153.6zM302.080 225.28c-10.24 0-23.893 0-30.72-5.12-29.013-15.36-56.32-34.133-88.747-52.907 5.12 27.307 10.24 51.2 18.773 75.093 5.12 17.067 3.413 25.6-13.653 35.84-98.987 69.973-139.947 174.080-110.933 281.6 29.013 98.987 100.693 160.427 197.973 191.147 133.12 42.667 278.187 0 360.107-105.813 29.013-39.253 46.080-80.213 51.2-131.413-81.92-5.12-153.6-27.307-211.627-87.040-58.027-56.32-87.040-128-80.213-215.040-32.427 5.12-61.44 11.947-92.16 13.653zM884.053 90.453c-25.6-23.893-35.84-40.96-18.773-71.68 3.413-5.12 3.413-13.653 5.12-20.48-25.6 13.653-51.2 27.307-76.8 30.72s-51.2-13.653-78.507-15.36c-81.92-8.533-153.6 15.36-215.040 68.267-116.053 104.107-97.28 266.24 32.427 353.28 117.76 76.8 290.133 51.2 372.053-56.32 75.093-87.040 68.267-213.333-20.48-288.427zM505.173 512c20.48 0 35.84 15.36 35.84 37.547 0 20.48-18.773 35.84-37.547 35.84-20.48 0-37.547-17.067-37.547-37.547s17.067-35.84 39.253-35.84zM766.293 348.16c-15.36 0-30.72-13.653-30.72-30.72s13.653-30.72 30.72-30.72 30.72 13.653 30.72 27.307c-1.707 22.187-13.653 34.133-30.72 34.133z" />
<glyph unicode="&#xe924;" glyph-name="whatsapp" data-tags="whatsapp" d="M525.653 698.027c-168.96 0-303.787-134.827-303.787-303.787 0-58.027 15.36-112.64 46.080-160.427l6.827-11.947-30.72-112.64 114.347 30.72 10.24-6.827c46.080-27.307 98.987-42.667 155.307-42.667v0c168.96 0 303.787 134.827 303.787 303.787 0 81.92-30.72 158.72-88.747 215.040-58.027 58.027-134.827 88.747-213.333 88.747zM703.147 264.533c-6.827-20.48-42.667-40.96-61.44-42.667-15.36-1.707-35.84-1.707-58.027 1.707-11.947 5.12-30.72 10.24-51.2 20.48-92.16 40.96-150.187 133.12-155.307 138.24s-37.547 47.787-37.547 93.867c0 46.080 22.187 66.56 32.427 76.8 6.827 10.24 17.067 10.24 25.6 10.24 5.12 0 11.947 0 17.067 0s11.947 1.707 20.48-15.36c6.827-17.067 25.6-63.147 27.307-68.267s1.707-10.24 0-15.36c-1.707-5.12-5.12-10.24-10.24-15.36s-10.24-11.947-11.947-15.36c-5.12-5.12-10.24-10.24-5.12-17.067 5.12-10.24 22.187-37.547 51.2-63.147 35.84-30.72 63.147-40.96 73.387-46.080s15.36-1.707 20.48 1.707c5.12 5.12 22.187 25.6 27.307 35.84s11.947 6.827 20.48 5.12c6.827-1.707 52.907-25.6 61.44-30.72 10.24-5.12 15.36-6.827 17.067-10.24 5.12-6.827 5.12-23.893-3.413-44.373zM1024 662.187c0 22.187-1.707 51.2-5.12 66.56-5.12 20.48-10.24 40.96-17.067 56.32-10.24 17.067-22.187 35.84-35.84 51.2-15.36 15.36-30.72 27.307-51.2 35.84-15.36 6.827-35.84 15.36-56.32 17.067-11.947 1.707-42.667 5.12-66.56 5.12-10.24 0-20.48 0-27.307 0h-505.173c-5.12 0-17.067 0-27.307 0-22.187 0-51.2-1.707-66.56-5.12-20.48-5.12-40.96-10.24-56.32-17.067-17.067-10.24-35.84-22.187-51.2-35.84-15.36-15.36-27.307-30.72-35.84-51.2-6.827-15.36-15.36-35.84-17.067-56.32-1.707-11.947-5.12-42.667-5.12-66.56 0-10.24 0-20.48 0-27.307v-503.467c0-5.12 0-17.067 0-27.307 0-22.187 1.707-51.2 5.12-66.56 5.12-20.48 10.24-40.96 17.067-56.32 10.24-17.067 22.187-35.84 35.84-51.2 15.36-15.36 30.72-27.307 51.2-35.84 15.36-6.827 35.84-15.36 56.32-17.067 11.947-1.707 42.667-5.12 66.56-5.12 10.24 0 20.48 0 27.307 0h503.467c5.12 0 17.067 0 27.307 0 22.187 0 51.2 1.707 66.56 5.12 20.48 5.12 40.96 10.24 56.32 17.067 17.067 10.24 35.84 22.187 51.2 35.84 15.36 15.36 27.307 30.72 35.84 51.2 6.827 15.36 15.36 35.84 17.067 56.32 1.707 11.947 5.12 42.667 5.12 66.56 0 10.24 0 20.48 0 27.307v503.467c1.707 6.827 1.707 17.067 1.707 27.307zM525.653 29.013v0c-61.44 0-122.88 15.36-175.787 42.667l-194.56-51.2 51.2 189.44c-32.427 56.32-47.787 117.76-47.787 184.32-1.707 201.387 162.133 365.227 363.52 365.227 97.28 0 189.44-37.547 257.707-107.52 68.267-68.267 107.52-160.427 107.52-257.707 3.413-201.387-160.427-365.227-361.813-365.227z" />
<glyph unicode="&#xe925;" glyph-name="youtube" data-tags="youtube" d="M1000.107 629.76c-13.653 44.373-46.080 80.213-88.747 88.747-78.507 23.893-399.36 23.893-399.36 23.893s-320.853 0-399.36-22.187c-44.373-13.653-80.213-46.080-90.453-90.453-22.187-78.507-22.187-245.76-22.187-245.76s0-167.253 20.48-245.76c13.653-42.667 46.080-78.507 90.453-88.747 80.213-23.893 401.067-23.893 401.067-23.893s320.853 0 399.36 20.48c42.667 13.653 78.507 46.080 88.747 88.747 23.893 81.92 23.893 249.173 23.893 249.173s0 167.253-23.893 245.76zM409.6 230.4v307.2l266.24-153.6-266.24-153.6z" />
<glyph unicode="&#xe926;" glyph-name="telegram" data-tags="telegram" d="M512 896c-283.307 0-512-228.693-512-512s228.693-512 512-512c283.307 0 512 228.693 512 512s-228.693 512-512 512zM756.053 563.2c-1.707-20.48-13.653-93.867-25.6-172.373-17.067-110.933-37.547-232.107-37.547-232.107s-3.413-34.133-27.307-39.253c-25.6-5.12-66.56 20.48-73.387 27.307-5.12 5.12-110.933 71.68-150.187 104.107-10.24 8.533-22.187 27.307 1.707 47.787 52.907 49.493 116.053 109.227 155.307 148.48 17.067 17.067 35.84 59.733-39.253 8.533-105.813-71.68-208.213-139.947-208.213-139.947s-23.893-15.36-68.267-1.707c-44.373 10.24-95.573 29.013-95.573 29.013s-35.84 22.187 25.6 46.080c0 0 256 105.813 344.747 141.653 34.133 15.36 150.187 61.44 150.187 61.44s52.907 20.48 47.787-29.013z" />
<glyph unicode="&#xe927;" glyph-name="discord" data-tags="discord" horiz-adv-x="903" d="M546.133 465.92c-29.013 0-52.907-25.6-52.907-56.32s23.893-56.32 52.907-56.32c29.013 0 52.907 25.6 52.907 56.32s-23.893 56.32-52.907 56.32zM356.693 465.92c-29.013 0-52.907-25.6-52.907-56.32s23.893-56.32 52.907-56.32c29.013 0 52.907 25.6 52.907 56.32 1.707 30.72-22.187 56.32-52.907 56.32zM797.013 896h-691.2c-59.733 0-105.813-47.787-105.813-105.813v-691.2c0-59.733 46.080-107.52 105.813-107.52h585.387l-27.307 93.867 66.56-61.44 63.147-58.027 110.933-97.28v921.6c-1.707 58.027-49.493 105.813-107.52 105.813zM597.333 226.987c0 0-18.773 22.187-34.133 40.96 68.267 18.773 93.867 61.44 93.867 61.44-20.48-13.653-40.96-23.893-59.733-30.72-25.6-10.24-51.2-17.067-75.093-22.187-49.493-8.533-95.573-6.827-133.12 0-29.013 5.12-54.613 13.653-75.093 22.187-11.947 5.12-25.6 10.24-37.547 17.067-1.707 1.707-3.413 1.707-5.12 3.413-1.707 0-1.707 1.707-1.707 1.707-8.533 5.12-13.653 8.533-13.653 8.533s25.6-40.96 90.453-59.733c-15.36-18.773-34.133-42.667-34.133-42.667-114.347 3.413-157.013 78.507-157.013 78.507 0 165.547 75.093 298.667 75.093 298.667 75.093 54.613 145.067 52.907 145.067 52.907l5.12-6.827c-92.16-25.6-134.827-66.56-134.827-66.56s11.947 6.827 30.72 13.653c54.613 23.893 98.987 30.72 117.76 32.427 3.413 0 5.12 1.707 8.533 1.707 30.72 3.413 66.56 5.12 104.107 1.707 49.493-5.12 102.4-20.48 155.307-49.493 0 0-40.96 39.253-128 64.853l6.827 8.533c0 0 69.973 1.707 145.067-52.907 0 0 75.093-133.12 75.093-298.667-6.827 0-49.493-75.093-163.84-78.507v0z" />
<glyph unicode="&#xe928;" glyph-name="opensea" data-tags="opensea" d="M512 896c-281.6 0-512-230.4-512-512s230.4-512 512-512 512 230.4 512 512-230.4 512-512 512zM252.587 365.227l3.413 1.707 133.12 208.213c1.707 3.413 5.12 3.413 6.827 0 22.187-51.2 40.96-112.64 32.427-150.187-5.12-15.36-15.36-37.547-25.6-56.32 0-1.707-1.707-5.12-5.12-6.827 0 0-3.413-3.413-5.12-3.413h-136.533c-3.413 0-5.12 5.12-3.413 6.827zM844.8 295.253c0-1.707 0-1.707-1.707-5.12-10.24-5.12-46.080-20.48-61.44-40.96-37.547-51.2-66.56-128-129.707-128h-267.947c-95.573 0-172.373 76.8-172.373 170.667v1.707c0 1.707 3.413 5.12 5.12 5.12h150.187c3.413 0 5.12-3.413 5.12-5.12 0-10.24 0-20.48 5.12-27.307 10.24-17.067 29.013-27.307 46.080-27.307h73.387v56.32h-71.68c-5.12 0-5.12 5.12-5.12 6.827 0 0 3.413 1.707 3.413 5.12 6.827 10.24 15.36 25.6 25.6 40.96 6.827 10.24 13.653 25.6 17.067 35.84 0 1.707 3.413 5.12 3.413 6.827 0 5.12 3.413 6.827 5.12 10.24 0 3.413 1.707 5.12 1.707 10.24 3.413 10.24 3.413 20.48 3.413 32.427 0 5.12 0 10.24 0 15.36s0 10.24 0 15.36 0 10.24-3.413 13.653c0 6.827-1.707 13.653-5.12 20.48v3.413c0 5.12-3.413 10.24-5.12 13.653-5.12 15.36-10.24 27.307-15.36 40.96-1.707 5.12-5.12 10.24-5.12 15.36-3.413 8.533-5.12 15.36-10.24 20.48 0 1.707-3.413 5.12-5.12 6.827 0 3.413-1.707 5.12-5.12 10.24 0 1.707-3.413 5.12-3.413 5.12l-6.827 15.36c0 3.413 0 5.12 1.707 5.12l56.32-15.36 13.653-6.827h3.413v32.427c0 15.36 13.653 30.72 27.307 30.72 6.827 0 15.36-3.413 20.48-6.827 5.12-5.12 8.533-13.653 8.533-20.48v-46.080l5.12-3.413c0 0 3.413-1.707 5.12-5.12 3.413-3.413 5.12-5.12 8.533-5.12 5.12-5.12 13.653-10.24 20.48-15.36 1.707-1.707 5.12-1.707 5.12-5.12 10.24-6.827 20.48-18.773 30.72-30.72 3.413-1.707 5.12-5.12 8.533-10.24 1.707-1.707 5.12-6.827 8.533-10.24 1.707-5.12 6.827-10.24 10.24-13.653 0-3.413 3.413-5.12 5.12-6.827 5.12-5.12 6.827-13.653 10.24-18.773 0-3.413 1.707-5.12 5.12-10.24 5.12-8.533 8.533-15.36 8.533-25.6 0-3.413 0-5.12 0-5.12 0-1.707 0-5.12 0-6.827 0-10.24 0-18.773 0-25.6 0-5.12-1.707-8.533-1.707-10.24s-1.707-6.827-5.12-10.24c-1.707-6.827-6.827-15.36-10.24-20.48 0-3.413-3.413-5.12-5.12-8.533-1.707-1.707-5.12-5.12-5.12-6.827-1.707-3.413-5.12-5.12-6.827-10.24-1.707-1.707-5.12-5.12-6.827-10.24-3.413-5.12-8.533-6.827-10.24-11.947-1.707-1.707-5.12-5.12-6.827-6.827-1.707-3.413-5.12-5.12-6.827-8.533-3.413-1.707-5.12-5.12-10.24-8.533l-5.12-5.12h-47.787v-56.32h56.32c13.653 0 25.6 5.12 34.133 13.653 1.707 1.707 17.067 15.36 35.84 32.427 0 0 0 0 3.413 0l155.307 46.080c5.12 3.413 8.533 0 8.533-1.707v-39.253h1.707z" />
</font>
</defs>
</svg>
